Jay Z Discography Flac

Jay-Z - Discography (1996-2013) {} vtwin88cube1996 - Jay-Z - Reasonable Doubt {FLAC}/01. Название: Discography Party People (feat. After being available exclusively on Tidal since it's release Friday, Jay-Z's 4:44 has now been shared as a download in MP3 and FLAC through the service. Buy Digital Discography $388. Jay-Z Discography (1996-2013) allmusic. Gary Stewart Discography Downloads; Tracy Bonham Discography Downloads; Torrent Downloads; That said, we know that the best torrent site is always the one that has the high-quality torrent you're after, and with the most seeders, so a large and thorough list of torrent sites, like those in the list below the torrents that are the best of the best, is always a welcome resource to find. FLAC and more. 85MB Kanye West - 2010 - My Beautiful Dark Twisted Fantasy [FLAC]/08 - Devil in a New Dress (feat. A Major Rag 9. to is the largest czech cloud storage. 28 MB] 02 - Jay-Z - Hard Knock Life (Ghetto Anthem). 03 by King Deetoy & D Mongz, released 22 June 2020 1. JAY-Z - Caught Their Eyes (feat. 90 Gb Tracklist: 1984 - Diamond Life 01. Pretty Hurts (4:18) 2. Gloria Carter) (04:49) 04. dangerous mc-biggie-busta 20. As a result, Jay-Z’s discography is almost exclusively available on Tidal. Shuffling The Deck 3. Leaves' Eyes - King of Kings (Ltd. Jay-Z - American Gangster (FLAC) 01 - Intro. Download Jay Z Official Discography (1996 2013) FLAC vtwin88cube torrent or any other torrent from the Audio FLAC. Blow (5:10) 5. Download Disarmonia Mundi - Discography Torrent. 0 % Test CRC F93C7837 Copy CRC F93C7837 Track not present in AccurateRip database Copy OK Track 10 Filename C:\EACRips\Jay-z - The Hits Collection, Vol1 (2010) [FLAC]\10 - Dirt Off Your. جی-زی (jay-z) دانلود مجموعه آثار، آلبوم و اهنگ های جی-زی (jay-z) برترین و بهترین آهنگ های جدید جی-زی (jay-z) دانلود با کیفیت اورجینال flac (16bit) پخش آنلاین و استریم رایگان mp3 128k. Rihanna - Дискография / Discography Artist: Rihanna Album: Discography Year: 2005-2010 Genre: R & B Audio: FLAC, 819-1127 kbps Size: 4. 1: Past, Present & Future (CD) (2010) (FLAC + 320 kbps) Jay-Z – Vol. He's a solo artist at the moment but plans to release an EP with an unnamed team in the next 3 months. 63MB 1996 - Jay-Z - Reasonable Doubt {FLAC}/02. Hey Mama 17. so ghetto-jay z 25. Posted in Z Of Firing Squad Tagged 2018, D. 12 GB Length: 9:37:37. Buy, preview and download over 30 million tracks in our store. Justin Timberlake - Discography. Artist genre: mp3 FLAC. JAY-Z - Kill Jay Z (02:58) 02. Hang On To Your Love 04. Genres: Acoustic Rock, Singer/Songwriter, Film Soundtrack. so ghetto-jay z 25. Jay-Z - 100$ Bill 03:22 2. Free (Interlude) 11. I 39 ve reviewed these guys before and what you can expect from the music is a modern parallel to the Dadaistic movement. Beyoncé - Crazy In Love ft. Missing (Live). Jay-Z The Takeover dL Remix by the dL, released 22 July 2019. cue / log Bitrate: lossless Total Size: 5. Latest Discography. JAY-Z – 4:44. It was released on June 30, 2017 by Roc Nation. TIMBERLAKE, SISTER SLEDGE, TECHNOTRONIC, DONNA SUMMER. supported by 6 fans who also own “Jaydiohead: Jay-Z x Radiohead” You can't go wrong with Amerigo. cue, log Bitrate: 320. The Carters (Beyonce & Jay-Z) - EVERYTHING IS LOVE (Chopped and Screwed) by DJ MDW by The Carter, Beyonce, Jay-Z and DJ MDW, released 29 June 2018 1. August 23, 2020 admin. flac 03 - Busy Being Fabulous. Nothin’ But Love feat. Interludio Haruna Fati 06. The Grey Album is a mashup album by Danger Mouse, released in 2004. Pass the Roc 06. Inspired by Kanye West, Lil Wayne, and Jay-Z while growing, he soon parlayed a love for music into a budding rap career. /The Black Keys-Gold On The Ceiling. Gloria Carter) (04:49) 04. The mixtape is apart of a campaign titled "Rekindle The Flame", where Billy and Fame is teaming up with DJs worldwide to create a 16-track mixtape of classic M. 0 % Test CRC F93C7837 Copy CRC F93C7837 Track not present in AccurateRip database Copy OK Track 10 Filename C:\EACRips\Jay-z - The Hits Collection, Vol1 (2010) [FLAC]\10 - Dirt Off Your. 0 % Test CRC F93C7837 Copy CRC F93C7837 Track not present in AccurateRip database Copy OK Track 10 Filename C:\EACRips\Jay-z - The Hits Collection, Vol1 (2010) [FLAC]\10 - Dirt Off Your. Jay-Z & Twista). Get all 576 Peter G ReWeRks releases available on Bandcamp and save 80%. Around And Around 55. 04:44 American reper Jay-Z is the thirteenth studio album and the thirteenth solo album. Pharrell Williams, JAY-Z. Jay-Z And Kanye West-Watch The Throne-Deluxe Edition-CD-FLAC-2011-PERFECT Jay-Z and K-Def-Real Live Gangster-2007-FTD INT Jay-Z And Linkin Park - Number Encore-Promo CDS-2004-iDC. Tom Down 6. Wishing Well 52. Greatest MC (Demo) 02. com/1bi74f c618e22409 Reasonable Doubt is the one album Jay-Z created before having to contend with. Previously, Rihanna’s Anti , Beyoncé’s Lemonade , and Kanye West’s The Life of Pablo were also TIDAL exclusives. Interludio Haruna Fati 06. Can't Knock The Hustle. Intro ADN / DNA 02. Trey Songz). 1 kHz (Tracks) Performer: Beyoncé Title: Discography 2003-2011 (12 CD) Genre: RnB, Soul Folder Size: 4. Beyonce & JAY-Z - EVERYTHING IS LOVE (2018) [FLAC] 61: 9: Apr. High quality Jay-Z MP3 downloads from 7digital United States. 52MB Kanye West - 2010 - My Beautiful Dark Twisted Fantasy [FLAC]/05 - All of the Lights. 02 - Jay Z – Threat [Skillz Beats Remix] 3. Purchasable with gift card Buy Digital Track discography. Jay-Z - Show Me What You Got (Single) (2006) [FLAC] Uploaded 2012-12-15 19:30, 82. Upload, share, search and download for free. Picasso Baby (Chopped and Screwed) 3. Added: 2013-11-03 15:31:04: Hits: 241: Peers: Seeders : 2 , Leechers : 183 = 185: Keywords: USA Hot Top 40 Singles Chart 9, November, 2013 [Bubanee] , USA Hot Top 40 Singles Chart 9-November-2013 [Bubanee] , USA Hot Top 40 Singles Chart 9 November 2013 [Bubanee]. Wanna Luv U 2. The release of Beyoncé's debut album, Dangerously In Love (2003), established her as a solo artist, selling over 11 million copies and earning her five Grammy Awards. Tom Ford (Chopped and Screwed) 4. Download a copy on iTunes HERE or stream it on Spotify. Me, Myself And I 07. Tom Down 6. High quality Jay-Z music downloads from 7digital United Kingdom. Jay-Z - American Gangster (FLAC) 01 - Intro. Jay-Z by J. Includes unlimited streaming via the free Bandcamp app, plus high-quality downloads of O. flac 10 - Do Something. Get all 576 Peter G ReWeRks releases available on Bandcamp and save 80%. Исполнитель: Jay-Z Альбом: Discography Год выпуска: 1996-2013 Жанр: Rap, hip-hop О музыке: Шон Ко́ри Ка́ртер ((англ. Year Of Release: 2017 Genre: Hip-Hop Format: Flac, Tracks Bitrate: lossless Total Size: 214. dangerous mc-biggie-busta 20. com, where those who have been given a voucher code can download the album as a zip. Justin Timberlake - Midnight Summer Jam 03. Glory-Fake-Nation 2. 9 GB 2002 - Justified 2002 - Justified (UK Edition) 2003 - Justin Timberlake & Christina Aguilera - Justin & Christina [EP] 2006 - FutureSex - LoveSounds (Deluxe Edition) 2010 - Essential Mixes 2013 - Suit & Tie feat. Octagon Fever 4. Armed with clever phrasing and sly deadpan wit, Jay-Z navigates indulgent romp "Can't Knock the Hustle", thought-provoking introspection Regrets, and devastating street. 9 MB: Studio albums/2013 - True (Japan 2017)/03 Hey Brother. Download a copy on iTunes HERE or stream it on Spotify. 50 Cent) 08. On Dynasty Roc la Familia, Jay-Z also began working with a few new producers: the Neptunes, Kanye West, and Just Blaze. Purchasable with gift card Buy Digital Full Digital Discography. Static of Playa). is dropping a new mixtape today, exclusively at The Marxmen fanpage. Imagine (Live) 50. Rock the boat 4. 17 GB] The Beatles - Revolver [24bit 192kHz Vinyl FLAC] [1. PurplePrint Intro 2. 52MB Kanye West - 2010 - My Beautiful Dark Twisted Fantasy [FLAC]/05 - All of the Lights. Get all 9 Astronote releases available on Bandcamp and save 40%. For Light On her first proper album as Jay Som, Melina Duterte, 22, solidifies her rep as a self-made force of sonic splendor and emotional might. Quality: FLAC 16 bit / 44. I 39 ve reviewed these guys before and what you can expect from the music is a modern parallel to the Dadaistic movement. High quality Jay-Z MP3 downloads from 7digital United States. Finally Made It (Interlude) 06. Purchasable with gift card Buy Digital Track $1 USD or more. An Encore In Time (Jay-Z vs. Greatest MC (Demo) 02. Justin TimberLake) 2. Sauce Money 07. Includes unlimited streaming via the free Bandcamp app, plus high-quality downloads of GroceryStoreSushi, twoSides Pusha T x Jay-Z (DrugDealersAnonymous), EarlGrey&SweatPants (Westside & MF Edition), TheGangsterOfLove, ChasingTheSun, Dreams, The Shade Of An Umbrella, PrideInMyPocket, and 7 more. 2-CD-Mediabook) (2015, Sympho Gothic Metal) - Download for free via torrent - Metal Tracker. Исполнитель: Jay-Z Альбом: Discography Год выпуска: 1996-2013 Жанр: Rap, hip-hop О музыке: Шон Ко́ри Ка́ртер ((англ. 29th '19: 239. Frankie's First Affair 05. Octagon Fever 4. Be With You 06. Brooklyn's Finest (Feat. Lou Reed - Ultimate Discography (1972-2008) [FLAC] Lou Reed - Ultimate Discography (1972-2008) [FLAC] USA Hot Top 40 Singles Chart 2-November-2013 [Buba LOU REED - Best Of Greatest Hits [Bubanee] Halie Loren - Simply Love 2013 320kbps CBR MP3; Bob Dylan The Complete Album Collection Vol. Jay - Z Artist genre: Electronica , Hip Hop/R&B , Rap , Rock , Nu Metal , Pop , Pop Rock , Pop Rap Subscribe to updates Unsubscribe from updates. Think Twice 6:18 03. Method Man) 09. Come and download missy elliot flac absolutely for free. Studio albums/2013 - True (Japan 2017)/01 Wake Me Up. 52MB Kanye West - 2010 - My Beautiful Dark Twisted Fantasy [FLAC]/05 - All of the Lights. Damian Marley) 08. High quality Jay-Z music downloads from 7digital United Kingdom. Death of Storytelling 4. Jay-Z The Takeover dL Remix by the dL, released 22 July 2019. Jay-Z - Drug Dealers Anonymous (Kick Back Mix) by blaqLotus Records, released 15 August 2020. JxZxIxDxMxKxAxSxIxAxCxCxNx Jay-Z is Died Murder Kill a Superstar in a Club CNN-news, or JxZxIxDxMxKxAxSxIxAxCxCxNx, is a one man goregrind project from Chicago. Sep 28, 2018 · Download rap via torrent. Chrono Trigger Mashup) 4. The deal fell through but the song lives to this day. David Bowie Discografia MEGA ALBUMS DE ESTUDIO: 1967 – David Bowie 1969 – Space Oddity 1970 – The Man Who Sold the World (Remastered) 1971 – Hunky Dory 1972 – The Rise and Fall of Ziggy Stardust and the Spiders from Mars 1973 – Aladdin Sane 1973 – Pin Ups 1974 – Diamond Dogs (Remastered) 1975 – Young Americans 1976 – Station to Station 1977 – “Heroes” (Remastered. Beyoncé (born September 4, 1981, Houston, Texas, USA) is an American singer, songwriter and actress. 5 MB: Studio albums/2013 - True (Japan 2017)/05 Dear Boy. Pharrell Williams, JAY-Z. Around And Around 55. 1 1 1 1 FREE XXXTENTACION x SMOKEPURPP x LIL PUMP TYPE BEAT 2017 (prod. An Encore In Time (Jay-Z vs. Understand Me 05. Cole World. 2007 album from the rapper-turned-business mogul. Elsewhere Jay Dee produced classic material with Dwele, Erykah Badu, De La Soul, Gurus Jazzmatazz 3, Jay Z, Busta Rhymes, Janet Jackson, The Brand New Heavies… Quite simply The finest hip hop producer the world has ever known. Buy, preview and download over 19 million tracks in our store. Artist genre: mp3 FLAC. Uploaded 2010-06-28 07:16, 779. 음원(MP3/AAC/FLAC) Jay-Z – A Brooklyn Tale (2015) 수입정품 - 작업용 최음제, 비아그라, 씨알리스 (클릭) Sunz Of Man Discography 2017. its been a long time-canibus 18. Direct download via Aretha Franklin - 30 Greatest Hits (2000) {FLAC} vtwin88cube · Magnet link · VIP Trusted Uploaded 04-12 2009, Size 3. Magna Carta Holy Grail Chopped & Screwed by Jay-Z, released 16 July 2013 1. Death of Storytelling 4. Interludio Haruna Fati 06. High quality Jay-Z music downloads from 7digital United Kingdom. flac 11 - You Are Not Alone. Jay-Z - Official Discography (1996-2013) {FLAC. 토렌트맥스 새주소 안내 - https://torrentmax. Jay-Z - Gangster American (DJ DDS) This is a collection of my remixes using various instrumentals mashed together with vocals from Jay-Z's "American Gangster" Album. Lights Please. IT'S JUST HERE. Magna Carta (Chopped and Screwed) by DJ Purpberry + Jay z, released 08 March 2020 1. Static of Playa). Jay-Z - Official Discography (1996-2013). Buy, preview and download over 19 million tracks in our store. 03 by King Deetoy & D Mongz, released 22 June 2020 1. rip in Music. Timbaland Discography (1997-2009) FLAC » audio music lossless 6 years 2776 MB 1 3 Jay Z Full Discography + Mixtape Albums + Mixtapes » audio music mp3 10 years 2197 MB 2 1 R. vip [이벤트] 다양한 기프티콘 지급 안내 (수정). m4a 01 Birthday Song (feat. 50 USD or more. Longitudinal Petersaurus, released 18 August 2019 1. 15 MiB, ULed by Freak0370: 41: Fleetwood Mac - Essentials (2020) Mp3 320kbps [PMEDIA] ⭐️. Jay-Z & Beyonce - Pray For Me Again(Galaxy Edition) 5. cue / log Bitrate: lossless Total Size: 5. Complete Works [Brilliant Classics 100 CD Box] Beethoven. Outkast - Hey Ya This album is the vol. JUSTIN TIMBERLAKE ft. Jay-Z Feat. 1 GB | 3% RAR Recovery. Justin Timberlake - Filthy 02. 2019 has been a banner year for Griselda Records. 1 MB: Studio albums/2013 - True (Japan 2017)/02 You Make Me. Justin Learns Something At The Zoo 2. Jay - Z - Hola Hovito FLAC and more. 토렌트맥스 새주소 안내 - https://torrentmax. Jay-Z, Rihanna, & Kanye West - Run This Town 7. Hang On To Your Love 04. Sampled many times by hip-hop artists : JAY-Z, DAFUNIKS, GUTS JANKO NILOVIC, one of the greatest studio talents of Europe in the 70s !” Includes unlimited streaming of Pop Impressions (remastered) via the free Bandcamp app, plus high-quality download in MP3, FLAC and more. Una Leyenda China 05. Dagombas en Tamale. (C) 2003 Roc-A-Fella Records, LLC. Jay-Z - Demo Tape 01. High quality Jay-Z music downloads from 7digital United Kingdom. Jun 7, 2017 - Beyoncé - Discography (2002-2016) [MP3 & lossless] Beyoncé - Discography Year Of Release: 2002-2016 Genre: R&B, Pop, Dance Format: MP3 | flac, Tracks +. Memphis Bleek). Title Of Album: Discography (Japan press) Release Date: 1984-2011 Location: England Label: Epic / Sony Genre: Soul, R&B, Smooth Jazz, Pop Quality: FLAC | lossless (image +. net Jay Z Discography 1996 2013 FLAC vtwin88cube music 2 months torrentfunk. Springtime 7. Latest Discography. Jay Z - Feelin It (Phoniks Remix) by Phoniks, released 08 December 2013. Download Dope Discography (MP3) torrent or any other torrent from Mp3 category. Justin Timberlake - Midnight Summer Jam 03. Includes unlimited streaming via the free Bandcamp app, plus high-quality downloads of I Saw A Tiger In The Key Of Purple, Dillafornia 10, It's A Full Moon, I'm A Werewolf, Flip Wilson Vol. wav Peak level 98. Jun 7, 2017 - Beyoncé - Discography (2002-2016) [MP3 & lossless] Beyoncé - Discography Year Of Release: 2002-2016 Genre: R&B, Pop, Dance Format: MP3 | flac, Tracks +. Jay-Z Discography @ 320 (24 Albums+2)(RAP)(by dragan09) [FLAC] Discography of Massive Attack (1991-2010) Uploaded 07-11 2011, Size 6. (C) 2003 Roc-A-Fella Records, LLC. Fiona Apple Discography (1996-2012) FLAC Posted by kat. Get all 576 Peter G ReWeRks releases available on Bandcamp and save 80%. 02 - Jay Z – Threat [Skillz Beats Remix] 3. 03 - Jay Z Feat. Listen to music from JAY-Z. Redemption Song (Ed live with Beyoncé) 53. Jay-Z's classic debut is a compelling reflection on his life as a hustler. 63MB 1996 - Jay-Z - Reasonable Doubt {FLAC}/02. Me, Myself And I 07. We Major 15. Justin Timberlake – Discography. Year Of Release: 2001-2016 Genre: Pop, R&B Format: Flac, Tracks & Tracks +. 9 GB 2002 - Justified 2002 - Justified (UK Edition) 2003 - Justin Timberlake & Christina Aguilera - Justin & Christina [EP] 2006 - FutureSex - LoveSounds (Deluxe Edition) 2010 - Essential Mixes 2013 - Suit & Tie feat. After being available exclusively on Tidal since it's release Friday, Jay-Z's 4:44 has now been shared as a download in MP3 and FLAC through the service. JAY-Z – The Hits Collection Volume One (International Version (Explicit)) Year Of Release: 2015 Format: Flac, Tracks Bitrate: lossless Sample Rate: 16bit/44. Touch my soul 2. FLAC and more. #Tracks #128. Interludio Haruna Fati 06. Buy Digital Discography $388. Jay - Z - Hola Hovito FLAC and more. Swizz Beatz) (4:17) 08. Get By (Remix) (Talib Kweli featuring Mos Def, Jay Z, Kanye West & Busta Rhymes (5:44) 08. Jay-Z - Drug Dealers Anonymous (Kick Back Mix) by blaqLotus Records, released 15 August 2020. Lazarus by Sha Stimuli, released 02 October 2017 1. Don't Go 03. 1 MB: Studio albums/2013 - True (Japan 2017)/02 You Make Me. MOMENTUM by Calibro 35, released 24 January 2020 1. 2007 album from the rapper-turned-business mogul. Hang On To Your Love 04. Timbaland Discography (1997-2009) FLAC. On Dynasty Roc la Familia, Jay-Z also began working with a few new producers: the Neptunes, Kanye West, and Just Blaze. Jay Dee’s Welcome 2 Detroit was the first in the BEAT GENERATION series. Jay-Z The Takeover dL Remix by the dL, released 22 July 2019. 8 Discography, Flac-lossless, LOSSLESS, MP3 Beyoncé - WRZmusic. 1 MB] 2Pac - Me Against The World [1/5. Damian Marley) 08. Redemption Song (Ed live with Beyoncé) 53. Behind The Ropes feat. 2-CD-Mediabook) (2015, Sympho Gothic Metal) - Download for free via torrent - Metal Tracker. Jay-Z began his music career in the 1980s, building a reputation as a fledgling rapper in his hometown of Brooklyn and collaborating with his mentor and fellow rapper Jaz-O. jay z (1) jimi hendrix (1) john mayer (1) johnny cash (1) journey (1) judas priest (1) kings of leon (1) led zepellin (1) legiao urbana (1) lil wayne (1) linkin park (1) los fabulosos cadillacs (1) lost prophets (1) maroon 5 (1) massive attack (1) megadeth (1) metallica (1) moby (1) morcheeba (1) nina simone (1) nirvana (1) no doubt (1) outkast. Dagombas en Tamale. Jay-Z - Official Discography (1996-2013) {FLAC} vtwin88cube: 9: 2: 7. Hey Mama 17. Rocket (6:32. Includes unlimited streaming via the free Bandcamp app, plus high-quality downloads of I Saw A Tiger In The Key Of Purple, Dillafornia 10, It's A Full Moon, I'm A Werewolf, Flip Wilson Vol. Beyonce - Discography 2 torrent download locations Download Direct Beyonce - Discography could be available for direct download Spónsored Link google. cant tell who is (prod. Jay Z & TIDAL Hi-Fi Music Streaming Service Flac 1411 kbps - Lossless Each artist page includes a discography, videos, bio, social media and links to similar artists. 02 - How Long. its been a long time-canibus 18. Brooklyn's Finest (Feat. 11 MB] 05 - Jay-Z - Nigga What, Nigga Who (Originator 99) (feat. flac 05 - Guillty Of The Crime. Jay - Z - Hola Hovito FLAC and more. 2019 has been a banner year for Griselda Records. 9 MiB, ULed by stamatiski: 1: 0: LINKIN PARK - DISCOGRAPHY MP3 320kbps - DeGun TPB. Stan Lee feat. Music Metal Torrents - torrent downloads, Music Metal Torrents - Bittorrent download source for torrent downloading, movies, music, games, software, tv shows, anime, and other torrents. Buy, preview and download over 30 million tracks in our store. Dollar and a Dream III. JAY-Z Memphis Bleek Freeway Young Gunz Peedi Crakk Sparks Rell. Z, released 21 February 2012. Search Results for Jay-Z - ProStudioMasters ProStudioMasters. 음원(MP3/AAC/FLAC) Jay-Z – A Brooklyn Tale (2015) 수입정품 - 작업용 최음제, 비아그라, 씨알리스 (클릭) Sunz Of Man Discography 2017. She rose to fame in the late 1990s as lead singer of R&B girl group Destiny's Child. 1 GB | 3% RAR Recovery. Alive (Rehearsal with Dave Krusen) 54. However, the young shooter of the crew, Elcamino, has been largely ignored by the press and masses alike. Gloria Carter) (04:49) 04. The PurplePrint by Jay Z, released 11 September 2015 1. The PurplePrint by Jay Z, released 11 September 2015 1. III(Galaxy Edition) 6. FLOAT EP by D. 1] 3 -- 1998 - Jay-Z - Hard Knock Life (EP). Lollapalooza 2014: Hip-Hop Heroes and Dance DJs Steal the Weekend. Sonic Dawn 5. SUMMER (CHOPPED AND SCREWED) BY DJ MDW 2. It mixes an a cappella version of rapper Jay-Z's The Black Album with samples from The Beatles' self-titled ninth album, commonly known as "The White Album". Artist genre: mp3 FLAC. Finally Made It (Interlude) 06. JAY-Z - Smile (feat. Jay-Z - Magna Carta Holy Grail [320kbps]-2013, Size : 137 MB , Magnet, Torrent, , infohash : 5baa50233d6ad6a46d02b01d8b0e01626e6a9a17 , Total Files : 17. Without Her feat Jennifer Myles 2. Is Location is - Your ISP and Government can track your torrent activity! Rugged Thunderbolt 1/U2/Albums/1980 - Boy/01 I Will Follow. Limb From Limb Written 2012-2016. Justin Timberlake – Discography. Nice And Slow 04. 50MB Wolves in the Throne Room Discography [FLAC] [Black Metal] 2. Jay-Z, Swizz Beatz, & Mary J Blige - Your Welcome 10. Nobody's. Genres: Pop. Drunk In Love (Feat. Baby Boy 04. net Jay Z Discography 1996 2013 FLAC vtwin88cube music 2 months torrentfunk. Jay-Z & Lyfe Jennings. Artist genre: mp3 FLAC. Longitudinal Petersaurus, released 18 August 2019 1. There Is A God 5:50 06. (03:51) 03. Stan Lee feat. Jay-Z - Blue Magic Demand (DJ DDS) 10. cue / log Bitrate: lossless Total Size: 5. It mixes an a cappella version of rapper Jay-Z's The Black Album with samples from The Beatles' self-titled ninth album, commonly known as "The White Album". Over the weekend, rap legend Jay Z removed most of his music catalog from the streaming giant, leaving fans of the popular music service with three full albums of material — 2010’s The Hits. Music video by Jay-Z performing Change Clothes. is dropping a new mixtape today, exclusively at The Marxmen fanpage. bklyn hardrock-thirstin howl-masta fool 24. cue+covers) Length: n/a min Tracks: 12 CD Total Size: 5,2 Gb (3% востановление) WebSite: Home Page. Get all 9 Astronote releases available on Bandcamp and save 40%. One More Time, Please 6. Brooklyn's Finest (Feat. Rising Down feat Mos Def & Styles P. It's invested with an uncommon complexity and candor that has noticeably faded in his later material. Format : FLAC (tracks) Quality : lossless Sample Rate : 44. Jay-Z - Demo Tape 01. 1kHz Audio Channels: 2. Good As Hell (Remix) X Dirt Off Your Shoulder (Dj Hope Wordplay Transition 96-82 BPM) (Dirty) Jay - Z – full discography. Afro beat and hip hop have been so briliantly merged in this masterpiece. Jay-Z The Takeover dL Remix by the dL, released 22 July 2019. Search for: [FLAC] Pet Shop Boys - Discography the Complete Singles Collection (1991) [FLAC] Dizzy - The Sun and Her Scorch (2020) [FLAC] bdrmm - Bedroom (2020) [FLAC] Derrick Hodge - COLOR OF NOIZE (2020) [FLAC] Search for. bklyn hardrock-thirstin howl-masta fool 24. All A Dream feat Jay - Z and Faith Evans plus high-quality download in MP3, FLAC and more. Speechless 10. Armed with clever phrasing and sly deadpan wit, Jay-Z navigates indulgent romp "Can't Knock the Hustle", thought-provoking introspection Regrets, and devastating street. The Story of O. Jay Z - Feelin It (Phoniks Remix) by Phoniks, released 08 December 2013. Download Maze (ft. 90 Gb Tracklist: 1984 - Diamond Life 01. From recording their highly anticipated record for Eminem’s Shady Records to Benny The Butcher signing a management deal with Jay-Z’s Roc Nation, they have made some major moves. Michael Bublé – Christmas 2011 [Special Edition] FLAC Korn - The Path of Totality 2011 (320kbps) Amy Winehouse - Lioness Hidden Treasures (2011) FLAC Rihanna - Talk That Talk (Deluxe Edition) 2011 [FLAC]. Una Leyenda China 05. 2-One-Sided Hip Hop/Breakbeat EP Includes unlimited streaming of M. It was released on June 30, 2017 by Roc Nation. Two Words featuring Mos Def, Freeway & Harlem Boys Choir (4:26) 06. dangerous mc-biggie-busta 20. Gloria Carter) (04:49) 04. JAY-Z - Reasonable Doubt (1996) [FLAC] Tagged Hip-Hop, JAY-Z Discover. This serves as Armadilla’s coming out of his shell introduction, and showcases his previously unreleased, made-for-personal-use-only work. Direct download via Aretha Franklin - 30 Greatest Hits (2000) {FLAC} vtwin88cube · Magnet link · VIP Trusted Uploaded 04-12 2009, Size 3. Glay Discography Torrent Rating: 4,6/5 9790 votes Comments Off on GLAY – DRIVE -GLAY complete BEST- [Mora FLAC 24bit/96kHz] GLAY – DRIVE -GLAY complete BEST- [Mora FLAC 24bit/96kHz] Posted by mqs / Posted 2 years ago January 10, 2017. Jay-Z - Pray [Raider Remix] [Produced by Jerry Rescue!!!] by Rescue Season, released 13 May 2012. Kitty Kat. net Jay Z Discography 1996 2013 FLAC vtwin88cube music 2 months torrentfunk. David Bowie Discografia MEGA ALBUMS DE ESTUDIO: 1967 – David Bowie 1969 – Space Oddity 1970 – The Man Who Sold the World (Remastered) 1971 – Hunky Dory 1972 – The Rise and Fall of Ziggy Stardust and the Spiders from Mars 1973 – Aladdin Sane 1973 – Pin Ups 1974 – Diamond Dogs (Remastered) 1975 – Young Americans 1976 – Station to Station 1977 – “Heroes” (Remastered. Keep Me In Your Heart (Ed live) 57. Jay Z's beloved Blueprint series — a collection of albums that includes the 2001 classic The Blueprint, 2002's The Blueprint 2: The Gift & the Curse, and 2009's The Blueprint 3 — is now only. Jay-Z - My President Is Black 9. am - Bang Bang 04:39 4. Paradise Lost - Discography [2009-2020] (2020) Flac. Lil Wayne-Hit The Lights-PROMO-CDR2-FLAC-2011-WRE Jay Sean-My Own Way-CD-FLAC-2008-DeVOiD Jay-Jay Johanson-Self-Portrait-CD-FLAC-2008-CHS Jay-Z-99 Problems-Promo-CDS-FLAC-2004-PERFECT Jay-Z-Change Clothes-Promo-CDS-FLAC. Chrono Trigger Mashup) 3. flac 09 - Fast Company. the operation-screwball 16. Finally Made It (Interlude) 06. THIS SECTION IS BASICALLY FOR THE 'SEARCH BOX' ON THIS SITE AS SOME LISTINGS IN THE SCROLL BOXES DO NOT APPEAR FROM IT, THIS IS NOT A COMPLETE LIST. Just Like Me 03. Jealous (3:04) 8. Blow (5:10) 5. Hunted Down 58. Cole - Cole World- The Sideline Story (Album) Flac 01. the Punisher, released 01 April 2015 1. Includes unlimited streaming via the free Bandcamp app, plus high-quality downloads of GroceryStoreSushi, twoSides Pusha T x Jay-Z (DrugDealersAnonymous), EarlGrey&SweatPants (Westside & MF Edition), TheGangsterOfLove, ChasingTheSun, Dreams, The Shade Of An Umbrella, PrideInMyPocket, and 7 more. dangerous mc-biggie-busta 20. Jay-Z - The Black Album vinyl Released: 2003 Genre: Rap Style: East Coast Rap Codec: FLAC Bit Rate: ~ 2,800 kbps Bits Per Sample: 24 Sample Rate: 96,000 Hz Side Jay-Z - The Black Album [24 bit FLAC] vinyl. 1] 2 -- 1997 - Jay-Z - In My Lifetime, Vol. Smooth Operator 02. Two Words featuring Mos Def, Freeway & Harlem Boys Choir (4:26) 06. Sep 28, 2018 · Download rap via torrent. VA – No Sleep Recordings Sampler Vol. Sauce Money 08. Picasso Baby 3. Baby Needs New Shoes 4:38 05. Jay z discography features. 1 GB | 3% RAR Recovery. Jay Z by Rico Everything, released 09 June 2013. I Will Be Your Friend 09. 토렌트맥스 새주소 안내 - https://torrentmax. Kanye West Discography (2004-2016) [FLAC] angel21, Apr 17, 2018, in forum: Albums Jay Z) 14. Yonce / Partition (5:19) 7. m4a 01 Cut Her Off (feat. Eddie Vedder discography and songs: Music profile for Eddie Vedder, born 23 December 1964. 10 MB] 02 - Pray. Z-Tarzan Boy 2000-(2004389)-CDM-FLAC-1999-WRE The Legendary Oscar Peterson Trio-Live At The Blue Note-REMASTERED-4CD-FLAC-2004-DeVOiD The Magic Carpathians Project-Sonic Suicide Athnoise 1-(VI2005)-CD-FLAC-2004-dL. 1 kHz (Tracks) Performer: Beyoncé Title: Discography 2003-2011 (12 CD) Genre: RnB, Soul Folder Size: 4. Young Jeezy) (4:13) 07. rancid complete discography He developed this project by recruiting Atsushi TSUYAMA bass and Chu HASEGAWA drums and released the debut EP 39 Surfin 39 U. Friends 12. JUSTIN TIMBERLAKE ft. Sampled many times by hip-hop artists : JAY-Z, DAFUNIKS, GUTS JANKO NILOVIC, one of the greatest studio talents of Europe in the 70s !” Includes unlimited streaming of Pop Impressions (remastered) via the free Bandcamp app, plus high-quality download in MP3, FLAC and more. Tracklist: 01. Sep 28, 2018 · Download rap via torrent. 9 MB: Studio albums/2013 - True (Japan 2017)/03 Hey Brother. Lou Reed - Ultimate Discography (1972-2008) [FLAC] Lou Reed - Ultimate Discography (1972-2008) [FLAC] USA Hot Top 40 Singles Chart 2-November-2013 [Buba LOU REED - Best Of Greatest Hits [Bubanee] Halie Loren - Simply Love 2013 320kbps CBR MP3; Bob Dylan The Complete Album Collection Vol. 1 GB | 3% RAR Recovery. tap to play. /Tool - Studio Discography 1991 - 2006 [FLAC] [h33t] - Kitlope/Tool - 10 000 Days 2006/03 - Wings For Marie (Pt 1). flac 11 - You Are Not Alone. Be With You 06. Behind The Ropes feat. Without Her feat Jennifer Myles 2. flac 07 - Waiting In The Weeds. Genres: Acoustic Rock, Singer/Songwriter, Film Soundtrack. Kanye West). U2 Discography. Timbaland Discography (1997-2009) FLAC. Hey Mama 17. Understand Me 05. vip [이벤트] 다양한 기프티콘 지급 안내 (수정). CHECK OUT MISSY ELLIOT ON JANET JACKSON’S BRAND NEW SINGLE. Jay-Z - Drug Dealers Anonymous (Kick Back Mix) 3. Using BitTorrent is legal, downloading copyrighted material isn't. Swizz Beatz) (4:17) 08. 1 kHz (Tracks) Performer: Beyoncé Title: Discography 2003-2011 (12 CD) Genre: RnB, Soul Folder Size: 4. 15 GiB, ULed by gotfw: 50: 17: Audio. FLAC and more. Leave a comment. Buy, preview and download over 30 million tracks in our store. Jay-Z - My President Is Black 9. The Story of O. Jay Dee’s Welcome 2 Detroit was the first in the BEAT GENERATION series. Baby Boy 04. Download Disarmonia Mundi - Discography torrent or any other torrent from Other Music category. The Grey Album is a mashup album by Danger Mouse, released in 2004. Longitudinal Petersaurus 3. rip in Music. Lipstick Stains 2. Related Blog Posts. Jay z discography features. Links to nearly 50 FLAC quality Rap albums (mostly, some other genres). ProStudioMasters is an online music service for 24-bit AIFF, FLAC, MQA and DSD / DSF High-Resolution Audio. Rihanna - Дискография / Discography Artist: Rihanna Album: Discography Year: 2005-2010 Genre: R & B Audio: FLAC, 819-1127 kbps Size: 4. Shop for Jay-Z Discography 16x20 Signed Photograph. Find Jeezy discography, albums and singles on AllMusic. Show You How. Hannah Williams, British Soul Sensation Sampled By Jay-Z, Stands Tall On New Album '50 Foot Woman' Hannah Williams, the British soul hurricane who sensationally became part of Jay-Z's chart-topping 4:44 album, is primed and ready for her own national and international breakthrough. Sauce Money. Armed with clever phrasing and sly deadpan wit, Jay-Z navigates indulgent romp "Can't Knock the Hustle", thought-provoking introspection Regrets, and devastating street. Jay-Z by J. 22 MB] 03 - Jay-Z - If I Should Die (feat. 1 MB] 2Pac - Me Against The World [1/5. Dagombas en Tamale. Kanye West Discography (2004-2016) [FLAC] angel21, Apr 17, 2018, in forum: Albums Jay Z) 14. Behind The Ropes feat. Buy, preview and download over 30 million tracks in our store. JAY-Z - Caught Their Eyes (feat. Jay- Z & Chris Martin - Beach Chair 3. Sauce Money 09. Get all 576 Peter G ReWeRks releases available on Bandcamp and save 80%. 2006's "Kingdom Come" came at a point where Hip Hop was so stagnant that he didn't have to put much thought or skill into the album to. Lil Wayne-Hit The Lights-PROMO-CDR2-FLAC-2011-WRE Jay Sean-My Own Way-CD-FLAC-2008-DeVOiD Jay-Jay Johanson-Self-Portrait-CD-FLAC-2008-CHS Jay-Z-99 Problems-Promo-CDS-FLAC-2004-PERFECT Jay-Z-Change Clothes-Promo-CDS-FLAC. 1 Year+ - in Music. 9 GB 2002 - Justified 2002 - Justified (UK Edition) 2003 - Justin Timberlake & Christina Aguilera - Justin & Christina [EP] 2006 - FutureSex - LoveSounds (Deluxe Edition) 2010 - Essential Mixes 2013 - Suit & Tie feat. Justin Timberlake - Filthy 02. Quality: FLAC 16 bit / 44. Jay-Z - Gangster American (DJ DDS) This is a collection of my remixes using various instrumentals mashed together with vocals from Jay-Z's "American Gangster" Album. Jay-Z) - Single 2013 - iTunes Festival London - Single 2013 - Mirrors (Radio Edit) - Single 2013 - Tunnel Vision - Single 2014 - Not a Bad Thing (Radio Edit) - Single [2018] Justin Timberlake - Man of the Woods (Album) HQ. Sauce Money 08. Black Flags 6. Imagine (Live) 50. Longitudinal Petersaurus 3. It's invested with an uncommon complexity and candor that has noticeably faded in his later material. Ardvark Phalloplasty Part II 4. A 8"x8" high gloss print of The Pawprint album artwork, signed by The White Panda. 토렌트맥스 새주소 안내 - https://torrentmax. 1 Billion Dogs 5. Kitty Kat. The Wake Part 2 feat MeLa Machinko 3. Bedtime 09. Torrent Info for 1975 Young Americans [Japan Reissue], infohash=dc09bd72cf648a53a8dc9b3f3a97e43a60feefb6118228525ca0569815758f957ebba0b33d75c7fa2c3a603c77124488. High quality Jay-Z music downloads from 7digital United Kingdom. 0 GB 9: 2 years ago: Lady Gaga - Discography (2008-2013) {FLAC} vtwin88cube: 9: 3: 3. Method Man) 09. Jay-Z, Pusha T, Prynce Cy Hi, Swizz Beatz & The RZA). Enjoy So after tidal messed up I spent a while searching for links and this is what I’ve got. 01 - Jay Z – 99 Problems [Skillz Beats Remix] 2. Back To Black 03:21 3. Death of Storytelling 4. rip in Music. PACK Jay-Z [Discography] ALAC (1996 - 2018) Discussion in 'Albums (lossless) FLAC JAY-Z x Linkin Park - Collision Course (Deluxe Version) (Tidal 16bits 44. Lou Reed - Ultimate Discography (1972-2008) [FLAC] Lou Reed - Ultimate Discography (1972-2008) [FLAC] USA Hot Top 40 Singles Chart 2-November-2013 [Buba LOU REED - Best Of Greatest Hits [Bubanee] Halie Loren - Simply Love 2013 320kbps CBR MP3; Bob Dylan The Complete Album Collection Vol. Public Chrono Announcement (Jay-Z vs. Jay-Z - Official Discography (1996-2013). Missy Elliott – Discography (1997 – 2006) [FLAC] July 20, 2011. 5 MB 4: 2. tap to play. Memphis Bleek). wav Peak level 98. Get all 9 Astronote releases available on Bandcamp and save 40%. 0 % Test CRC F93C7837 Copy CRC F93C7837 Track not present in AccurateRip database Copy OK Track 10 Filename C:\EACRips\Jay-z - The Hits Collection, Vol1 (2010) [FLAC]\10 - Dirt Off Your. Get By (Remix) (Talib Kweli featuring Mos Def, Jay Z, Kanye West & Busta Rhymes (5:44) 08. 1 (WAV Files / 24 bits) by EW&F, GEORGE BENSON, J. Jay Hooks - Studio Discography 1997-2002 [FLAC] 1 Year+ - in Music Jay-Z Discography 1996-2011 320KBS plus mix tapes and collaberations. Fast downloads. 9 GB 2002 - Justified 2002 - Justified (UK Edition) 2003 - Justin Timberlake & Christina Aguilera - Justin & Christina [EP] 2006 - FutureSex - LoveSounds (Deluxe Edition) 2010 - Essential Mixes 2013 - Suit & Tie feat. JAY-Z - Kill Jay Z (02:58) 02. Beyonce - Discography 2 torrent download locations Download Direct Beyonce - Discography could be available for direct download Jay-Z). High quality Jay-Z MP3 downloads from 7digital United States. Download lossless music Jay-z in popular formats: FLAC, MP3, M4A. Album Artwork/Jay-Z & R. 0% Test CRC F93C7837 Copy CRC F93C7837 Track not present in AccurateRip database Copy OK Track 10 Filename C: EACRips Jay-z - The Hits Collection, Vol1 (2010) [FLAC] 10 - Dirt Off Your. Jay-Z - 100$ Bill 03:22 2. With featured mixtapes, spotlight, upcoming, today's top 8, recent exlusives, being played right now, top of the month, recently sponsored. Lollapalooza 2014: Hip-Hop Heroes and Dance DJs Steal the Weekend. People Like Myself (feat. Jay-Z - Show Me What You Got (Single) (2006) [FLAC] Uploaded 2012-12-15 19:30, 82. Jay-Z - Discography (1996-2013) {} vtwin88cube1996 - Jay-Z - Reasonable Doubt {FLAC}/01. Buy, preview and download over 30 million tracks in our store. Not Today (Feat. Find Nas discography, albums and singles on AllMusic. Get all 35 Daniel Crawford releases available on Bandcamp and save 35%. The Black Album Remix / Jay-Z by Paul Nice vs Jay-Z, released 18 September 2014 1. supported by 6 fans who also own “Jaydiohead: Jay-Z x Radiohead” You can't go wrong with Amerigo. So my management put me on a remix with Jay Z in Chicago to see what the city's response would be. 28 MB] 02 - Jay-Z - Hard Knock Life (Ghetto Anthem). View credits, reviews, tracks and shop for the 2017 CD release of 4:44 on Discogs. Torrent Info for 1975 Young Americans [Japan Reissue], infohash=dc09bd72cf648a53a8dc9b3f3a97e43a60feefb6118228525ca0569815758f957ebba0b33d75c7fa2c3a603c77124488. 4, Lift Every Voice And Sing, Dillafornia 9, Revolution, Shake Ya Body, and 27 more. Jay Z's beloved Blueprint series — a collection of albums that includes the 2001 classic The Blueprint, 2002's The Blueprint 2: The Gift & the Curse, and 2009's The Blueprint 3 — is now only. Jay-Z - Hard Knock Life, Vol. Da Ranjahz). Nothin' But Love feat. High quality Jay-Z MP3 downloads from 7digital United States. Inspired by Kanye West, Lil Wayne, and Jay-Z while growing, he soon parlayed a love for music into a budding rap career. Frankie's First Affair 05. Jay-Z - Show Me What You Got (Single) (2006) [FLAC] Uploaded 2012-12-15 19:30, 82. tap to play. Everybody Works by Jay Som, released 10 March 2017 1. Crazy In Love 02. Jay-Z The Takeover dL Remix by the dL, released 22 July 2019. 0 GB 9: 2 years ago: Lady Gaga - Discography (2008-2013) {FLAC} vtwin88cube: 9: 3: 3. Filename; Size Albums/2001 - Gorillaz/01 - Re-Hash. Find Nas discography, albums and singles on AllMusic. watch me -jay z 26. Sep 28, 2018 · Download rap via torrent. wav Peak level 98. Pass the Roc 06. 15 MiB, ULed by Freak0370: 41: Fleetwood Mac - Essentials (2020) Mp3 320kbps [PMEDIA] ⭐️. Hang On To Your Love 04. Honorable Mention. cue / log Bitrate: lossless Total Size: 5. Rising Down feat Mos Def & Styles P. Jay-Z - Discography (1996-2013) {} vtwin88cube1996 - Jay-Z - Reasonable Doubt {FLAC}/01. Come and download missy elliot flac absolutely for free. You keep us going and growing – with your support we will do even more in 2020. Show You How. Understand Me 05. Uploaded 07-05 2013, Size 3. to is the largest czech cloud storage. 2 Chainz) 1. Springtime 7. Tom Ford (Chopped and Screwed) 4. Filename C:\EACRips\Jay-z - The Hits Collection, Vol1 (2010) [FLAC]\09 - Empire State Of Mind (featuring Alicia Keys). Discography by Beyoncé (2002-2016, CD Flac + MP3) - Release Date: 2002-2016 Genre: R&B, Pop, Dance Audio Codec: MP3 |Flac Rip Type: tracks +. Skit #4 19.